#TITLE:Mj Remix;
#SUBTITLE:Dead Master;
#ARTIST:Michael Jackson;
#TITLETRANSLIT:;
#SUBTITLETRANSLIT:;
#ARTISTTRANSLIT:;
#CREDIT:;
#BANNER:;
#BACKGROUND:;
#LYRICSPATH:;
#CDTITLE:;
#MUSIC:MJ Remix.ogg;
#OFFSET:-2.345;
#SAMPLESTART:45.157;
#SAMPLELENGTH:12.000;
#SELECTABLE:YES;
#BPMS:0.000=113.048,156.000=140.008,208.000=141.008,220.000=113.008,316.000=140.007,388.000=125.007;
#STOPS:;
#BGCHANGES:0.000=MJ Remix.avi=1.000=1=1=0,
99999=-nosongbg-=1.000=0=0=0 // don't automatically add -songbackground-
;
// cache tags:
#FIRSTBEAT:0.000;
#LASTBEAT:476.250;
#SONGFILENAME:Songs/9you/Mj/MJ Remix.sm;
#HASMUSIC:1;
#HASBANNER:0;
#MUSICLENGTH:237.393;
// end cache tags

//---------------dance-single - ----------------
#NOTES:
     dance-single:
     :
     Medium:
     1:
     0.729,0.802,0.788,0.286,1.000,956.000,187.000,68.000,0.000,1.000:  // measure 1
1001
0000
0110
0000
0000
0000
0101
0101
0000
0000
1010
0000
0000
0101
0000
0101
,  // measure 2
0000
1010
0000
0000
0000
0101
0101
0000
0000
0010
0000
0000
0000
0002
0000
0000
,  // measure 3
0000
0000
0023
0000
0000
0000
0000
0000
0000
0000
0000
0030
0200
0000
0000
0000
,  // measure 4
0000
0300
0020
0000
0000
0000
0000
0000
0000
0000
0000
0000
2030
0000
0000
0000
,  // measure 5
0000
3000
0020
0000
0000
0000
0000
0000
0000
0000
0000
0230
0000
0000
0000
0000
,  // measure 6
0000
0000
0302
0000
0000
0000
0000
0000
0000
0000
0000
0013
0000
0100
0000
0010
,  // measure 7
0000
1000
0000
0010
0100
0000
0001
0000
0100
0000
0010
0000
1000
0000
0001
0000
,  // measure 8
0100
0000
0010
0000
1000
0000
0001
0000
0100
0000
0010
1000
0000
0001
0000
0100
,  // measure 9
0000
0010
0000
1000
0000
0001
0000
0100
0000
0010
0000
1000
0000
0001
0000
0100
,  // measure 10
0000
0010
0000
1000
0000
0001
0000
0100
0000
0010
0000
1000
0000
0100
0010
0000
,  // measure 11
0100
0000
0000
0002
0010
0103
0020
0000
0000
0000
0030
0000
0010
0100
0010
2000
,  // measure 12
0000
0000
3000
0010
0000
0100
0010
0001
0000
0000
0010
0000
0100
0010
0000
0100
,  // measure 13
0000
0001
0000
1000
0000
0010
0000
0100
0000
0001
0100
0000
0010
0000
0000
1000
,  // measure 14
0001
0000
0000
0100
0000
0010
0000
1000
0001
0000
0010
0000
0100
0010
0000
0000
,  // measure 15
1000
0010
0100
0010
0002
0000
0000
0000
0003
0010
0100
0010
0100
0200
0000
0000
,  // measure 16
0000
0310
0000
0010
1000
0000
0100
0000
0010
0010
0100
0001
0000
0020
0000
0000
,  // measure 17
0000
0000
0030
0100
1000
0100
0010
0000
0020
0000
0230
0000
0000
0000
0300
0010
,  // measure 18
0000
0010
0000
0010
2000
0000
0200
3000
0000
0310
0000
0010
0000
0002
0000
0010
,  // measure 19
0000
0003
0100
0000
0010
0000
0000
1000
0000
0000
0100
0010
0000
0010
0000
0010
,  // measure 20
0000
0100
0010
0000
0001
1000
0000
0010
0100
0010
0000
0100
0001
0000
0000
0000
,  // measure 21
0010
0010
0100
0001
0000
0000
1010
0010
0000
0200
0000
0000
0000
0300
0010
0000
,  // measure 22
0010
0001
0000
0100
0010
0000
1000
0010
0000
0100
0010
0100
0000
0001
0100
0000
,  // measure 23
0010
0000
1000
0010
0000
0100
0000
0001
0000
0010
0000
1000
0000
0110
0000
0000
,  // measure 24
0000
0101
0000
0000
0000
1010
1010
0000
0000
0000
0101
0100
0010
0000
1001
0000
,  // measure 25
0110
0000
0101
0000
0100
0010
0000
1001
0000
0110
0000
0101
0000
0110
0000
0001
,  // measure 26
1000
1001
0000
0000
0000
0101
0100
0000
0000
0000
1001
0000
0000
0110
0000
1001
,  // measure 27
0000
0110
0000
0001
0100
0010
1000
0001
0000
0101
0000
1010
0000
1001
0000
0110
,  // measure 28
0000
0101
0000
1010
0000
0101
0000
0101
0000
1010
0000
1010
0000
0101
0000
0110
,  // measure 29
0000
1001
0000
0110
0000
1001
0000
0110
0000
1001
0000
0010
0100
0101
0000
0110
,  // measure 30
0000
1001
0000
0110
0000
0001
0100
0000
0110
1000
0001
0010
0100
1001
0000
0000
,  // measure 31
0000
0101
0000
0000
0000
1010
0000
0000
0000
0101
0100
0010
0000
1001
0000
0110
,  // measure 32
0000
0101
0000
0000
0000
1010
1000
0010
0000
0101
0000
0110
0000
1001
0000
0010
,  // measure 33
0100
0101
0000
1010
0000
0101
0000
0110
0000
1001
0000
0110
0000
0101
0000
0101
,  // measure 34
0000
0010
0001
0000
0000
0010
0000
0010
0000
0000
0110
0000
0110
0000
1001
0110
,  // measure 35
0000
0101
0000
1010
0000
0101
0000
0110
0000
1001
0000
0010
0100
0101
0000
1010
,  // measure 36
0000
0001
0100
0110
0000
1001
0000
0110
0000
0101
0000
1010
0000
0101
0000
0110
,  // measure 37
0000
0101
0000
0101
0000
0000
1010
1001
0000
0110
0000
0101
0000
1010
0000
0101
,  // measure 38
0000
0110
0000
1001
0000
0110
0000
0101
0000
1010
0000
0101
0000
1010
0000
0101
,  // measure 39
0000
0101
0000
0000
0000
1010
0000
0000
0000
0101
0000
0101
0000
1010
0000
0000
,  // measure 40
0000
0002
0000
0000
0000
0000
0000
0000
0000
0000
0010
0003
0010
0000
0100
0000
,  // measure 41
2000
0000
0000
0000
0000
0000
0000
0000
3010
0010
0000
0000
0100
0000
0020
0000
,  // measure 42
0000
0000
0000
0000
0000
0000
0030
0100
1000
0100
0010
0010
0001
0000
0010
0100
,  // measure 43
1000
0110
0000
0010
0001
0010
0000
0002
0010
0000
0103
1000
0110
0000
0020
0000
,  // measure 44
0000
0000
0000
0000
0000
0030
0011
0100
1000
0100
0010
0001
0010
0000
0011
0100
,  // measure 45
1000
0100
0010
0000
0011
0000
0011
0000
1100
0000
0100
0010
0000
0110
0000
0002
,  // measure 46
0000
0000
0000
0013
0000
0110
1000
0100
0000
0000
0010
0010
0000
0000
0000
0002
,  // measure 47
0000
0000
0000
0000
0013
0000
0100
1000
0100
0000
0000
0020
0000
0000
0000
0030
,  // measure 48
0020
0000
0000
0030
0000
0001
0010
0100
2000
0100
0000
3010
0000
0002
0010
0000
,  // measure 49
0000
0103
1000
0100
0010
0000
0010
0000
0002
0000
0020
0000
0003
0230
0000
0000
,  // measure 50
0000
0000
0000
0310
0000
0011
0000
0011
0100
1000
0100
0010
0000
0001
0010
0001
,  // measure 51
0010
0100
1000
0100
0010
0000
0010
0000
0001
0020
0000
0000
0000
0000
0000
0030
,  // measure 52
0000
0001
0010
0100
1000
0110
0000
0010
0000
0011
0000
0001
0010
0100
0001
1010
,  // measure 53
0100
0010
0000
0011
0000
0100
0010
0000
0011
0100
1000
0100
0010
0000
0011
0000
,  // measure 54
0001
0020
0000
0000
0000
0000
0000
0030
0001
0010
0100
1000
0100
0020
0000
0000
,  // measure 55
0000
0030
0002
0020
0000
0000
0000
0003
2030
0000
0000
0000
3000
0120
0000
0000
,  // measure 56
0000
0030
0000
0101
0000
0000
0000
1010
0000
1000
0010
0000
0101
0000
0000
0010
,  // measure 57
0010
0000
0100
0000
0000
0010
0000
1000
0000
0001
0000
0000
0100
0000
0010
0000
,  // measure 58
1001
0000
0000
0001
0110
0000
0000
0000
0000
1000
0010
0100
0000
0000
1001
0000
,  // measure 59
0001
0000
0000
0010
0000
0100
0000
0001
0000
0010
0000
0000
0001
0010
0000
0000
,  // measure 60
0100
0000
0010
0000
1000
0001
0000
0100
0000
0010
0000
0100
0000
0010
0000
0000
,  // measure 61
1000
0000
0001
0000
0100
0010
0000
0000
0100
0001
0000
1000
0000
0010
0000
0000
,  // measure 62
0100
0001
0000
1000
0000
0010
0000
0000
0100
0000
0010
0000
1000
0001
0000
0100
,  // measure 63
0000
0010
0000
0001
0000
0000
0000
0020
0000
0000
0030
0100
0000
0010
0000
1000
,  // measure 64
0000
0000
0100
0010
0000
0001
0000
0100
0000
0010
0000
1000
0000
0001
0000
0100
,  // measure 65
0000
0010
0000
0100
0000
0001
0000
1000
0000
0010
0000
0100
0000
0001
0000
0100
,  // measure 66
0000
0010
0000
1000
0000
0001
0000
0100
0000
0010
0000
1000
0000
0001
0000
0100
,  // measure 67
0000
0010
0000
0100
0000
0001
0000
1000
0000
0010
0000
0100
0000
0001
0000
0100
,  // measure 68
0000
0010
0000
1000
0000
0001
0000
0100
0000
0010
0000
1000
0000
0001
0000
0100
,  // measure 69
0000
0010
0000
1000
0000
0001
0000
0100
0000
0010
0000
1000
0000
0001
0000
0000
,  // measure 70
0100
0010
0000
1000
0000
0001
0000
0100
0000
0000
0010
1000
0000
0001
0000
0100
,  // measure 71
0000
0010
0000
1000
0000
0001
0000
0100
0000
0010
0000
1000
0000
0010
0000
0100
,  // measure 72
0000
0001
0000
0000
0010
0100
0000
0010
0000
1000
0000
0001
0000
0100
0000
0010
,  // measure 73
0000
0100
0000
0001
0000
1000
0000
0010
0000
0100
0000
0001
0000
1000
0000
0010
,  // measure 74
0000
0100
0000
0001
0000
1000
0000
0010
0000
0100
0000
0010
0000
1000
0000
0001
,  // measure 75
0000
0100
0000
0000
0010
1000
0000
0001
0000
0100
0000
0010
0000
1000
0000
0001
,  // measure 76
0000
0100
0000
0010
0000
1000
0000
0001
0000
0100
0000
0010
0000
1000
0000
0001
,  // measure 77
0000
0100
0000
0010
0000
0000
0100
0001
0000
0000
1000
0000
0010
0000
0100
0001
,  // measure 78
0000
1000
0000
0010
0000
0100
0000
0001
0000
0000
1000
0010
0000
0000
0100
0000
,  // measure 79
0010
0000
1000
0000
0001
0100
0000
0010
0000
1000
0000
0001
0000
0100
0000
0010
,  // measure 80
0000
0000
0000
0010
0000
0010
0010
0010
0000
1000
0000
1000
1000
0000
0010
0010
,  // measure 81
0000
0010
0100
0000
0100
0001
0001
0000
0001
0001
0001
1000
0000
1000
0000
1000
,  // measure 82
1010
0000
0010
0010
0000
0010
0100
0100
0000
0100
0001
0000
0001
0001
0000
1000
,  // measure 83
1000
0010
0000
0010
0010
0000
0100
0100
0100
0001
0001
0000
0001
0000
1000
0000
,  // measure 84
1000
1000
0010
0010
0000
0010
0100
0100
0000
0001
0001
0000
0001
0001
0000
1000
,  // measure 85
1000
0010
0000
0010
0010
0000
0100
0100
0000
0001
0000
0001
0001
0000
1000
1000
,  // measure 86
1000
0000
0010
0010
0010
0010
0000
0100
0100
0001
0000
0001
0001
0000
1000
1000
,  // measure 87
0010
0010
0000
0010
0100
0000
0100
0001
0000
0001
0001
0001
1000
0000
1000
0010
,  // measure 88
0000
0010
0010
0100
0000
0100
0000
0001
0001
0001
0000
0001
1000
0000
1000
0010
,  // measure 89
0000
0010
0010
0100
0000
0100
0000
0010
0010
0000
1000
0000
0000
0010
0010
0100
,  // measure 90
0000
0002
0000
0010
0003
1000
0000
0100
0000
0020
0000
0000
0130
0000
0020
0000
,  // measure 91
0000
0000
0000
0030
0100
0000
0010
0010
1100
0000
0110
0000
0002
0000
0000
0023
,  // measure 92
0000
0000
0030
0000
0010
0011
0000
0100
1100
0010
0000
0010
0000
0002
0000
0010
,  // measure 93
0000
0003
0010
0000
0000
0020
0000
0000
0030
0100
1000
0100
0010
0010
0000
0002
,  // measure 94
0010
0000
0103
0000
0000
0010
0000
0000
0000
0001
0010
1100
0000
0110
0010
0000
,  // measure 95
0002
0010
0000
0103
0000
0010
1000
0000
0100
0010
0000
0010
0000
0100
0000
0010
,  // measure 96
0000
0001
0010
0000
1100
0000
0100
0010
0000
0000
0000
0001
0000
0000
0010
0000
,  // measure 97
0010
0010
0100
1000
0100
0010
0000
0001
0000
0010
0000
0010
0000
0100
0000
0000
,  // measure 98
0101
0000
1010
0000
1001
0000
0000
0110
0100
0001
0000
0110
0000
1001
0000
0110
,  // measure 99
0000
0101
0000
1010
0000
0001
0100
0000
1010
0000
0101
0010
0100
0000
1001
0000
,  // measure 100
0110
0000
1001
0000
0110
0000
0001
0100
0000
0101
0000
1010
0000
0101
0000
1010
,  // measure 101
0000
0001
0100
0110
0000
1001
0000
0000
0110
0000
1001
0000
0110
0000
1001
0000
,  // measure 102
0110
0000
0000
1001
0000
0110
0000
0110
0001
0000
0001
0001
0001
0001
0000
0000
,  // measure 103
0000
0010
0000
0000
0000
1000
1000
0000
1000
1000
0000
1000
1000
0020
0000
0000
,  // measure 104
0000
0000
0130
0000
0000
0000
0010
0000
0001
0000
0100
0010
0000
0010
0000
0100
,  // measure 105
0001
0010
0010
1100
0100
0010
0010
0000
0000
0001
0010
0000
0100
0000
0010
0000
,  // measure 106
0100
0000
0001
0000
1000
0000
0010
0000
0000
0100
0000
0001
0000
0010
0100
0010
,  // measure 107
0010
0020
0000
0000
0000
0030
2000
0000
3000
0000
0010
0010
0000
0010
0010
0010
,  // measure 108
0000
0200
0000
0000
0000
0300
0010
0000
0000
0000
0010
0000
0010
0000
0012
0000
,  // measure 109
0103
0000
0000
0010
0011
0000
1000
0110
0000
0010
0000
0000
0011
0000
0000
0001
,  // measure 110
0000
0001
0010
0000
1100
0100
0000
0010
0000
0010
0000
0001
0000
0110
0000
0101
,  // measure 111
0000
0010
0000
0101
0000
0020
0000
0000
0000
0000
0000
0000
0000
0130
1000
0100
,  // measure 112
0010
0000
0010
0010
0000
0002
0000
0000
0000
0000
0000
0000
0000
0000
0013
0100
,  // measure 113
1000
0110
0000
0010
0010
0000
0200
0000
0000
0000
0000
0000
0000
0000
0310
0001
,  // measure 114
0010
0000
0011
1000
0100
0000
0010
0020
0000
0000
0000
0000
0000
0000
0030
0000
,  // measure 115
0002
0000
0010
0013
0100
2000
0100
0000
3020
0000
0000
0000
0000
0000
0030
0000
,  // measure 116
0001
0010
0001
0110
1000
0100
0010
0010
0000
0200
0000
0000
0000
0000
0000
0000
,  // measure 117
0000
0010
0300
0011
0000
0001
2010
0000
0100
3000
0020
0000
0000
0000
0000
0000
,  // measure 118
0000
0030
0001
0010
0000
0111
1000
0100
0010
0010
0000
0020
0000
0000
0000
0000
,  // measure 119
0000
0000
0030
0000
1100
0000
0110
0000
0010
0001
0000
0001
0000
0020
0000
0000
,  // measure 120
0000
0030
0000
0000
0000
0000
0000
0000
0000
0000
0000
0000
0000
0000
0000
0000
;
